Главная

Регистрация

Вход
My site
Воскресенье, 21.10.2018, 06:32
Приветствую Вас Гость | RSS
.
Главная » Статьи » Клипы

Клип Серебро - Давай держаться за руки
Здесь можно Послушать клип Серебро - Давай держаться за руки

Информация о видео:

Duration : 4mn 27s
Overall bit rate mode : Constant
Overall bit rate : 365 Kbps
Maximum Overall bit rate : 1 140 Kbps
Encoded date : UTC 2010-11-02 05:04:21.625
Application : Windows Movie Maker 2.1.4026.0

Video #2
ID : 2
Format : VC-1
Format profile : MP@ML
Codec ID : WMV3

Серебро - Исполнитель,
Давай держаться за руки - Клип,

Codec ID/Info : Windows Media Video 9
Codec ID/Hint : WMV3
Description of the codec : Windows Media Video 9
Duration : 4mn 27s
Bit rate mode : Constant
Bit rate : 1 000 Kbps
Width : 640 pixels
Height : 480 pixels
Display aspect ratio : 4:3
Frame rate : 25.000 fps
Resolution : 24 bits
Scan type : Progressive
Bits/(Pixel*Frame) : 0.130
Stream size : 31.9MiB
Language : Russian

Audio #1
ID : 1
Format : WMA2
Format profile : LI
Codec ID : 161
Codec ID/Info : Windows Media

Audio 2
Description of the codec : Windows Media Audio 9.2-128 kbps, 44 kHz, stereo (A/V) 1-pass CBP
Duration : 4mn 27s
Bit rate mode : Constant
Bit rate : 128 Kbps
Channel(s) : 2 channels
Sampling rate : 44.1 KHz
Resolution : 16 bits
Stream size : 4.09MiB(35%)










Скачать бесплатно Клипы Серебро

Господа.
К сожалению Клип Серебро - Давай держаться за руки предоставлен только в том виде, который сейчас на экране. Как только появится более солидный образец, мы предоставим его для скачивания.

Категория: Клипы | Добавил: MMMPPP333 (05.11.2010)
Просмотров: 799 | Теги: Клип Серебро - Давай держаться за р
Всего комментариев: 0
Добавлять комментарии могут только зарегистрированные пользователи.
[ Регистрация | Вход ]
.
Copyright MyCorp © 2018
Хостинг от uCoz