Главная

Регистрация

Вход
My site
Воскресенье, 21.10.2018, 07:37
Приветствую Вас Гость | RSS
.
Главная » Статьи » Клипы

Клип Scissor sisters - fire with fire
Здесь можно скачать Клип Scissor sisters - fire with fire

Информация о видео:

Complete name : Scissor Sisters - Fire With Fire.flv
Format : Flash Video
File size : 23.6 MiB
Duration : 3mn 49s
Overall bit rate : 860 Kbps
httphostheader : vl8.Isca

Video
Format : AVC
Format/Info : Advanced Video Codec
Format profile : Main@L3.Q
Format settings, CAEAC : Yes
Format settings, ReFrames : 3 frames
Muxmg mode : Container profile=Unknowmii3.0
Duration : 3mn 49s
Bit rate : 791 Kbps
Width : 640 pixels
Height : 360 pixels
Display aspect ratio : 16:9
Frame rate : 25.000 fps
Resolution : 24 bits
Colonmetry : 4:2:0
Scan type : Progressive
Bits/(Pixel*Frame) : 0.137
Stream size : 21.7MiB(92%)

Клип Scissor sisters - fire with fire

Audio
Format : AAC
Format/Info : Advanced Audio Codec
Format version : Version 4
Format profile : LC
Format settings, SEP : Yes
Format settings, PS : No
Duration : 3mn 49s
Bit rate : 64.6 Kbps
Channel(s) : 2 channels
Channel positions : L P
Sampling rate : 44.1 KHz
Resolution : 16 bits
Stream size : 1.77MiB(7%)










Скачать бесплатно Клип Scissor sisters - fire with fire

Господа.
Клип Scissor sisters - fire with fire предоставлен только в ознакомительных целях.

Категория: Клипы | Добавил: MMMPPP333 (05.11.2010)
Просмотров: 242 | Теги: Клип Scissor sisters - fire with fi
Всего комментариев: 0
Добавлять комментарии могут только зарегистрированные пользователи.
[ Регистрация | Вход ]
.
Copyright MyCorp © 2018
Хостинг от uCoz