Главная

Регистрация

Вход
My site
Среда, 21.11.2018, 18:51
Приветствую Вас Гость | RSS
.
Главная » Статьи » Клипы

Клип Dan Balan Вера брежнева - Лепестками слёз
Здесь можно Послушать клип Dan Balan Вера брежнева - Лепестками слёз

Информация о видео:

Complete name : klip_dan_balan_vera_brezhneva_lepestkami_sljoz
Format : Flash Video
File size : 7.94 MiB
Duration : 3mn 27s
Overall bit rate : 321 Kbps
httphostheader : vl2.Iscache4
Исполнитель - Dan Balan Вера брежнева
Клип - Лепестками слёз

Клип Dan Balan Вера брежнева - Лепестками слёз

Video
Format : H.263
Duration : 3mn 27s
Bit rate : 254 Kbps
Width : 400 pixels
Height : 226 pixels
Display aspect ratio : 16:9
Frame rate : 30.000 fps
Bits/(Pixel*Frame) : 0.094
Stream size : 6.28MiB(79%)

Audio
Format : MPEG Audio
Format version : Version 2
Format profile : Layer 3
Duration : 3mn 27s
Bit rate mode : Variable
Bit rate : 58.8 Kbps
Channel(s) : 2 channels
Sampling rate : 22.05 KHz
Resolution : 16 bits
Video delay : -33ms
Stream size : 1.46MiB(18%)










Скачать Клип

Категория: Клипы | Добавил: MMMPPP333 (05.11.2010)
Просмотров: 1283 | Теги: Клип Dan Balan Вера брежнева - Лепе
Всего комментариев: 0
Добавлять комментарии могут только зарегистрированные пользователи.
[ Регистрация | Вход ]
.
Copyright MyCorp © 2018
Хостинг от uCoz